<?xml version="1.0" standalone="no"?>
<!DOCTYPE svg PUBLIC "-//W3C//DTD SVG 1.1//EN" "http://www.w3.org/Graphics/SVG/1.1/DTD/svg11.dtd">
<svg xmlns="http://www.w3.org/2000/svg">
<metadata>Copyright (C) 2021 by original authors @ fontello.com</metadata>
<defs>
<font id="360" horiz-adv-x="1000" >
<font-face font-family="360" font-weight="400" font-stretch="normal" units-per-em="1000" ascent="850" descent="-150" />
<missing-glyph horiz-adv-x="1000" />
<glyph glyph-name="homework" unicode="&#xe800;" d="M349 769a95 95 0 1 0-95-94 95 95 0 0 0 95 94z m107-264h108s34-3 42-42c1-43-34-51-34-51l-139-1-68 36-47-163h138s49-9 54-57 1-229 1-229h38s24-5 26-30c0-27-27-33-27-33h-104s-24 6-27 26 0 228 0 228h-189s-30 5-48 25c-21 25-17 49-17 49l59 250s13 53 61 54 63 2 86-9m-307-607v570s2 13 15 15 33 1 33 1 13-4 15-16-1-365-1-365h228s21-3 25-25 0-180 0-180-2-15-14-15-32-1-32-1-14 5-15 15-1 143-1 143l-191 1v-143s-5-16-15-15c-11 0-31 0-31 0s-14 1-16 15z m390 427h473s13 0 17-14 1-411 1-411 0-14-16-17-223 0-223 0-11 3-14 17c0-1 0 31 0 31s3 14 14 13c11 1 113 0 113 0v318h-363s-16 3-18 15c0 0 0 33 0 33s7 18 16 15z m242 90l151-2s33-10 33-47-33-42-33-42h-153s-3 1-4 8c0 0 0 13 0 13s2 7 6 7h142s11 7 11 17-12 16-12 16h-140s-7 3-7 7v17s2 6 6 6z m12-30h17s10-19-1-33c0 0-15 0-15 0s11 20-1 33z m26 119l151-2s33-10 33-47-33-42-33-42h-153s-3 1-4 8c0 0 0 13 0 13s2 7 6 7h142s11 7 11 17-12 16-12 16h-140s-7 3-7 7v17s2 6 6 6z m12-30h17s10-19-1-33c0 0-15 0-15 0s11 20-1 33z m-53 118l151-2s33-10 33-47-33-42-33-42h-153s-3 1-4 8c0 0 0 13 0 13s2 7 6 7h142s11 7 11 17-12 16-12 16h-140s-7 3-7 7v17s2 6 6 6z m12-30h17s10-19-1-33c0 0-15 0-15 0s11 20-1 33z" horiz-adv-x="1000" />

<glyph glyph-name="notes" unicode="&#xe801;" d="M663 696c0 22-18 40-40 40h-23c1 4 1 9 1 14 0 55-45 100-100 100-56 0-101-45-101-100 0-5 1-10 1-14h-22c-22 0-40-18-40-40h-119c-45 0-82-36-82-82v-682c0-45 37-82 82-82h560c46 0 82 37 82 82v682c0 46-36 82-82 82h-117z m-202 54c0 22 18 40 40 40 22 0 40-18 40-40 0-5-1-10-2-14h-76c-1 4-2 9-2 14z m321-773c0-25-20-45-45-45h-472c-25 0-45 20-45 45v592c0 25 20 45 45 45h74v-40c0-22 18-39 40-39h244c22 0 40 17 40 39v40h74c25 0 45-20 45-45l0-592 0 0z m-461 469c-23 0-41-17-41-40s18-39 41-39h362c22 0 40 17 40 39 0 23-18 40-40 40h-362z m362-132h-362c-23 0-41-19-41-41 0-22 18-41 41-41h362c22 0 40 19 40 41 0 22-18 41-40 41z m0-134h-362c-23 0-41-18-41-40 0-22 18-40 41-40h362c22 0 40 18 40 40s-18 40-40 40z" horiz-adv-x="1000" />

<glyph glyph-name="important-information" unicode="&#xe802;" d="M500 850c-276 0-500-224-500-500s224-500 500-500 500 224 500 500-224 500-500 500z m83-140c2 0 4 0 6 0 27 1 50-20 54-46 12-51-42-102-91-81-59 27-29 124 31 127z m-25-221c39 3 46-42 34-87-24-104-60-205-80-310 10-41 62 6 84 21 19 15 23-4 29-20-47-33-95-67-148-93-49-30-90 16-78 68 21 98 48 193 70 290 7 53-62-1-83-13-16-21-24-6-31 13 55 40 111 90 172 121 12 7 23 10 31 10z" horiz-adv-x="1000" />

<glyph glyph-name="test-and-assignment" unicode="&#xe803;" d="M452 233l12-36h84l-96 261h-78l-96-261h81l12 36h81z m-42 138l0 0 24-81h-48l24 81z m216 9v-63h-63v-57h63v-63h57v63h63v57h-63v63h-57z m-126-386c180 0 326 117 326 296 0 180-146 327-326 327-54 0-141-27-153-39-12-12-9-39 15-27 24 12 87 33 138 33 162 0 296-132 296-297 0-162-131-266-296-266-162 0-296 102-296 266 0 51 27 132 36 144 9 9-15 36-24 18-9-18-42-102-42-162 0-179 146-293 326-293z m237 856l-6 0 0 0h-650v-1000h838v731 77 9l-182 183z m-611-955v910h572v-180h176v-730c0 0-748 0-748 0z" horiz-adv-x="1000" />

<glyph glyph-name="profile" unicode="&#xe804;" d="M601 421c19-63 69-129 136-129s116 66 135 129c17 5 31 22 36 43 7 29-4 57-25 65 2 8 3 15 3 24 0 69-69 125-154 125s-155-56-155-125c0-10 2-20 4-29-15-11-22-35-16-60 5-21 19-38 36-43z m-11 80c3 4 6 6 9 7 1 1 2 1 3 1 0 0 1 0 2-1l10 0 2 10c3 22 10 42 20 59 18-21 54-35 95-35 47 0 87 18 101 43 13-19 21-41 25-67l2-10 10 0c2 1 3 1 5 0 1 0 1 0 2-1 9-4 14-21 10-38-4-17-15-27-24-28l-8-1-2-7c-16-59-61-119-116-119-54 0-99 60-115 119l-2 7-8 1c-8 1-20 12-24 28-3 13-1 25 3 32z m278-159c-14-24-31-45-53-56-45-23-79-42-79-42l0 0v1l-1 0 0 0v-1l-1 0c0 0-33 19-79 42-22 12-38 32-53 56-67-27-114-90-114-144 0-58 0-114 0-114h246 1 247c0 0 0 56 0 114 0 54-47 117-114 144z m-483 8c118 0 214 109 214 244 0 135-96 245-214 245s-214-110-214-245c0-135 96-244 214-244l0 0z m0 61c-34 0-61 27-61 61h122c0-34-27-61-61-61l0 0z m-143 205c31-24 92-15 145 23 27 19 47 42 59 65 54-24 92-78 92-140 0-31-9-58-24-82l-129 51-129-51c-15 24-24 51-24 82 0 18 4 35 10 52l0 0z m387-327h-122l-122-184-122 184h-122c-68 0-123-55-123-122v-245c0-34 28-61 61-61h612c33 0 61 27 61 61v245c0 67-55 122-123 122l0 0z" horiz-adv-x="1000" />

<glyph glyph-name="achievements" unicode="&#xe805;" d="M500 698c38 0 70 44 70 83s-32 69-70 69c-38 0-69-31-69-69 0-39 31-83 69-83z m-318-177c38 0 69 44 69 83 0 38-31 69-69 69-39 0-70-31-70-69 0-39 31-83 70-83z m76-261v187c3 0 6-1 8-2l20-180c2-14 14-24 27-24 1 0 2 0 3 0 15 1 26 15 25 30l-22 198c0 1-1 2-2 4 0 2 0 3-1 5-1 2-2 3-3 4-2 2-2 3-4 4-1 2-3 3-5 4-1 0-2 1-3 2-3 0-66 23-119 23-49 0-106-19-118-23 0 0-1 0-1 0 0 0-1 0-1 0 0-1 0-1-1-1-2-1-5-3-7-5-1-1-2-2-3-2-1-2-3-4-4-6 0-2-1-3-1-5-1-2-1-3-2-4l-22-198c-1-15 10-29 25-30 1 0 2 0 3 0 14 0 26 10 27 24l20 180c2 1 5 2 8 2v-187l-19-231h-64v-107h27v-72h265v72h27v107h-64l-19 231z m-76-34c4 0 9 1 13 3l16-200h-59l16 200c4-2 9-3 14-3z m637 339c38 0 69 45 69 83 0 38-31 69-69 69-39 0-70-31-70-69 0-38 31-83 70-83z m-160-359h-63l-19 231v159c3-2 7-3 11-3 9 0 17 5 23 13l132 197c8 13 5 30-8 38-13 9-30 5-38-7l-105-158c-22 7-58 16-92 16-34 0-70-9-91-16l-106 158c-8 12-25 16-38 7-12-8-16-25-7-38l131-197c6-8 14-13 23-13 4 0 8 1 11 3v-159l-18-231h-64v-106h26v-250h266v250h26v106z m-159 197c5 0 9 1 13 3l16-200h-58l16 200c4-2 8-3 13-3z m414-330l-19 231v188c3-1 6-2 8-3l20-180c2-14 13-24 27-24 1 0 2 0 3 0 15 2 26 15 25 30l-22 198c-1 1-1 3-2 4 0 2-1 4-1 5-1 2-2 3-4 5-1 1-2 3-3 4-1 1-3 2-5 3-1 0-2 1-3 2-3 1-66 23-120 23-48 0-105-19-117-22 0-1-1-1-1-1 0 0-1 0-1 0 0 0 0-1-1-1-3-1-5-2-7-4-1-1-2-2-3-3-1-2-3-4-4-6 0-1-1-3-1-5-1-1-1-2-2-4l-21-198c-2-15 9-28 24-30 1 0 2 0 3 0 14 0 25 10 27 24l20 180c2 1 5 2 8 3v-188l-19-231h-64v-106h27v-117h265v117h27v106h-64z m-95 197c4 0 9 1 13 3l16-200h-59l16 200c4-2 9-3 14-3z" horiz-adv-x="1000" />

<glyph glyph-name="media-gallery" unicode="&#xe806;" d="M877 789h-573c-20 0-37-17-37-37v-94h74v57h499v-373h-66v-73h103c20 0 36 16 36 36v447c1 20-16 37-36 37z m-251-248h-573c-20 0-37-17-37-37v-447c0-20 17-36 37-36h573c20 0 36 16 36 36v447c0 20-16 37-36 37z m-37-447h-500v374h500v-374z m-365 51c6-4 13-6 19-6 6 0 12 1 17 4l210 105c13 6 20 19 20 33 0 14-7 26-20 33l-210 104c-12 6-25 5-36-1-10-7-17-19-17-31v-210c0-13 7-25 17-31z m898 495c-31 24-73 56-73 74 0 30-24 53-53 53-30 0-54-24-54-53v-492c-17 6-35 10-53 10-89 0-161-72-161-161s72-161 161-161 160 72 160 161v490c3-2 5-4 7-5 61-47 100-81 100-125 0-68-36-106-37-107-21-21-21-55-1-76 11-11 25-16 38-16 14 0 27 5 38 15 7 7 70 71 70 184-1 100-79 161-142 209z" horiz-adv-x="1278" />

<glyph glyph-name="promote" unicode="&#xe807;" d="M199 460c23-86 96-164 186-164 94 0 167 78 189 164 8 0 15 7 18 17l3 33c0 8-6 15-13 20 0 3 0 5 0 5-3 78-15 139-76 164-63 28-121 28-161 13-2 0-10-11-12-13-5 0-21 2-26 2-90-12-121-98-113-166 0-2 0-2 0-5-8-2-15-10-15-20l2-33c3-10 10-17 18-17z m20 68c40 15 116 45 126 60 35-35 159-55 212-63 0-2 0-7 0-10 0-88-76-191-172-191-95 0-166 100-166 191 0 3 0 8 0 13z m313-202c-6 0-11 0-13-2l-76-104-58 46 0 0v0l0 0-57-46-76 104c-3 0-8 2-13 2-143-20-153-348-153-348l302 0v0l302 0c-5 0-12 328-158 348z m216-348h66c12 0 25 10 25 26v247c0 12 10 25 23 25h40c20 0 33 22 20 38l-123 153c-11 13-28 13-38 0l-121-153c-13-16 0-38 20-38h40c13 0 23-13 23-25v-247c0-13 13-26 25-26z" horiz-adv-x="1000" />

<glyph glyph-name="add-teacher" unicode="&#xe808;" d="M419 568c7 3 19 3 31 0 3-86 156-76 151 0-6 54-107 68-140 24-20 7-45 4-54 0-31 40-132 39-139-30 2-63 142-83 151 6z m107 33l0 0c79-1 77-73-1-76-95 9-56 77 1 76z m-183 0c79-1 77-73-1-76-95 9-55 77 1 76z m4-277c49-42 90-40 90-40s40 3 85 39c44-44 114-50 191-19-40 8-90 63-87 154 25 14 56 116 3 114 25 135-5 258-192 271-180-11-224-109-198-272-56 7-16-106 3-112 0-106-41-135-86-155 71-34 153-25 191 20z m-78 223l6 11c0 0-11 39-8 61 42 4 125 44 167 111 24-34 74-96 168-112-2-30-6-61-6-61s2-5 4-10c24 43 51-31 2-76-41-77-97-142-166-161-100 27-143 109-167 161-55 52-23 119 0 76z m533-317c-27 0-54-6-78-17 1 0 1 0 1-1-2 0-4-1-7-2-14-7-28-17-40-27-47-43-88-125-47-223 31-64 96-109 171-109 105 0 190 85 190 190 0 104-85 189-190 189z m144-217h-110v-111c0-1-1-3-3-3h-50c-2 0-3 2-3 3v111h-111c-1 0-3 1-3 3v50c0 2 2 3 3 3h111v110c0 2 1 3 3 3h50c2 0 3-1 3-3v-110h110c2 0 3-1 3-3v-50c0-2-1-3-3-3z m-260 169c13 12 56-16 68-10 34 18-24 39-22 40-71 28-159 47-166 53 21-117-100-224-140-253-22 15-164 124-141 252-127-36-206-58-245-101-18-24-41-111-33-205h683c-11 25-45 55-45 84 0 56 1 105 41 140z" horiz-adv-x="993" />

<glyph glyph-name="announcementS" unicode="&#xe809;" d="M979 472c-14 14-31 21-50 21h0v215c0 19-7 36-22 50-14 14-30 21-50 21-171-143-338-214-500-214h-268c-24 0-45-9-63-27-17-17-26-38-26-63v-107c0-24 9-45 26-63 18-17 39-26 63-26h68c-6-20-10-41-12-62-2-21-2-39-2-55 1-15 4-34 9-56 5-22 9-39 12-50 4-11 10-28 18-52 9-25 14-41 17-49 17-16 41-26 73-31 32-5 64-3 94 6 31 9 52 25 63 46-15 12-26 21-35 29-8 7-17 17-26 28-10 11-16 21-19 30-4 10-5 21-4 33 2 12 6 24 13 36-14 15-21 32-22 52-1 20 5 38 17 56 13 17 29 30 51 37 147-13 298-83 453-212 20 0 36 7 50 21 15 14 22 31 22 50v214c19 0 36 7 50 21 14 14 21 31 21 51 0 20-7 36-21 50z m-122-316c-145 111-288 175-428 190v151c139 15 282 79 428 192v-533z" horiz-adv-x="1000" />

<glyph glyph-name="add-staff" unicode="&#xe80a;" d="M812 225c-105 0-189-84-189-188s84-189 189-189 188 84 188 189-84 188-188 188z m143-216h-110v-110c0-2-1-3-3-3h-50c-2 0-3 1-3 3v110h-110c-2 0-3 1-3 3v50c0 2 1 3 3 3h110v110c0 2 1 3 3 3h50c2 0 3-1 3-3v-110h110c2 0 3-1 3-3v-50c0-2-1-3-3-3z m-226 162c-24 72-56 115-102 152 14 121 22 299-22 374-74 171-283 215-399 42-92-134-44-353-45-416v-3c-86-44-130-231-136-316 8-58 61-63 61-63s449 1 580 1c-21 64 15 194 63 229z m-334 7l-129 66 68 105c0 0 58-31 122 1 14-21 67-105 67-105l-128-67z m-165 419c41 43 169 119 253 109 33-75 51-110 78-145-65-264-318-225-331 36z" horiz-adv-x="1000" />

<glyph glyph-name="settings" unicode="&#xe80b;" d="M942 8l-323 322c-3 3-6 6-9 8l57 61c3 2 5 6 8 9 76-29 165-13 226 48 44 45 66 106 61 169-1 7-5 13-12 15-7 3-14 1-19-4l-103-103-105 26-30 108 104 103c5 5 6 13 4 20-3 6-9 11-16 12-63 5-124-17-168-62-61-61-77-150-49-225-3-3-6-6-9-9l-84-80-154 154c-2 2-4 3-6 5 1 3 3 7 5 10 32-6 92 57 142 108l-147 147c-66-66-114-110-108-143-15-7-28-16-38-26l-20-20c-14-14-22-31-25-48-2-2-4-5-6-7l-8-10c0 0-1-1-1-2l-7-9c-4-6-8-13-12-19-1-2-3-4-4-7 0 0 0 0-1-1l-3-6c-4-7-7-14-11-22l0-1c-4-10-8-19-11-30l-2-4c-1-4-2-7-3-12l-3-14c-2-9-3-18-3-25l-1-5c-1-8 0-16 0-23 0-2 0-4 0-7 0-1 0-3 0-4 0-3 0-6 1-10l2-11c0-2 0-5 1-7 0-4 1-9 3-14l7-26c2-8 10-13 18-13 5 1 9 3 11 6 3 2 5 6 5 10l4 26c1 2 2 5 3 9 0 2 1 4 1 6l3 10c0 1 1 3 2 4 0 1 1 3 1 4 1 2 2 4 3 6 2 4 3 8 6 12 1 2 2 4 3 6 2 4 5 9 8 12 0 1 0 1 0 1l7 9c1 2 3 3 4 5 1 1 2 2 4 4 3 5 8 9 12 13l3 2c3 3 7 6 11 9 1 1 3 2 4 3 2 1 4 3 6 4 4 2 7 5 11 6l7 5 8 4c3 1 6 2 8 3 2 1 3 1 4 2 2 0 3 1 4 1 2 1 4 2 6 2l2 1c2-4 5-8 8-11l152-153-325-312c0-1-1-1-1-1-40-40-47-100-6-140 40-41 96-30 136 10 1 0 1 0 1 1l287 302c2-2 4-4 6-6l322-322c36-36 94-36 131 0 36 36 36 95 0 131z m-789-73c-15-14-39-14-54 0-15 15-15 40 0 55 15 15 39 15 54 0 15-15 15-40 0-55z" horiz-adv-x="1000" />

<glyph glyph-name="bonafide" unicode="&#xe80c;" d="M182 615h276v-437h-276v437z m943-513h-60l20-24h69v645h-1021v-649h315l28 24h-315v601h964v-597z m-509 521h359v-46h-359v46z m-135-116h624v-51h-624v51z m0-154h233 391l0 51h-624v-51z m344-38c70 0 128-57 128-128s-58-128-128-128-129 57-129 128 58 128 129 128z m0-322l106-133 48 128 138 18-107 133-185-146z m-332 88l128-49 18-137 133 106-151 186-128-106z" horiz-adv-x="1278" />

<glyph glyph-name="add-class" unicode="&#xe80d;" d="M105 257c30 0 55-25 55-55 0-31-25-55-55-55s-55 24-55 55l0 0c0 30 24 55 55 55z m-105-283h210v77c0 0-5 65-75 74 0 0-61 0-61 0s-70-8-74-78c0 0 0-73 0-73z m345 283c31 0 55-25 55-55 0-31-24-55-55-55-30 0-55 24-55 55l0 0c0 30 25 55 55 55z m-105-283h211v77c0 0-6 65-75 74-1 0-61 0-61 0s-71-8-75-78c1 0 0-73 0-73z m346 283c31 0 56-25 56-55 0-31-25-55-56-55-30 0-55 24-55 55l0 0c0 30 25 55 55 55z m-104-283h159c0 0 47 120 9 141-9 5-20 9-33 10 0 0-61 0-61 0s-71-8-74-78c0 0 0-73 0-73z m308 759c37 0 66-30 66-67s-29-67-66-67-67 30-67 67 30 67 67 67z m-179-39l66-68 1 177c0 0 1 39-43 47h-519c0 0-45-5-45-45v-380h-20v-80h644l-1 81h-17v38l-64 64v-79h-475v325h475m110-231l-129 137c0 0-24 26-52 7-19-23-1-47-1-47l167-182v-365l67-24-1 188 34 2 0-53c0 0 55 14 69-134 0 9-1 427-1 427s-6 60-59 65c-53 4-61 4-94-21z m-512 116h-18l24 81h22l26-81h-19l-17 68-18-68z m9 34h18l3-14h-25l4 14z m123-65v14h16c0 0 19-1 22-14 3-13-5-22-12-24 12-1 17-10 17-18 0-10-7-25-26-25s-17 1-17 1v14c0 0 14-1 16-1 5 2 18 12 1 21h-17v13c0 0 11-1 13 0 5 2 15 14 1 19h-14z m1 14v-80h-18v80h18z m153-100l9 10c0 0-10 18-40 7-27-17-21-44-21-44s2-28 25-34c0 0 27-7 37 11-3 3-8 10-8 10s-13-10-23-5c-9 8-11 6-13 22-2 17 11 26 11 26s14 5 23-3z m315-315c-105 0-189-85-189-189s84-189 189-189 188 85 188 189-84 189-188 189z m143-216h-110v-111c0-1-1-3-3-3h-50c-2 0-3 2-3 3v111h-110c-2 0-3 1-3 3v50c0 1 1 3 3 3h110v110c0 1 1 3 3 3h50c2 0 3-2 3-3v-110h110c2 0 3-2 3-3v-50c0-2-1-3-3-3z" horiz-adv-x="1000" />

<glyph glyph-name="add-section" unicode="&#xe80e;" d="M884 319h-433v433c0 3-2 6-6 6-245 0-445-200-445-445 0-246 200-446 445-446s446 200 446 446c0 3-3 6-7 6z m-372 65c0 0 1 0 2 0 2 0 3 1 4 2l301 317c1 1 2 2 2 4 0 2-1 3-2 4-83 79-192 122-305 122-3 0-6-3-6-7v-436c0-3 1-5 4-6z m240 319l-195-205v283c71-8 138-34 195-78z m108-13c-3 3-7 2-9 0l-301-317c-1-1-1-3-1-4v-3c0-3 2-6 6-6h439c3 0 6 3 6 6 0 124-50 239-140 324z m-207-281l203 214c52-61 84-134 92-214h-295z" horiz-adv-x="1000" />

<glyph glyph-name="map-class" unicode="&#xe80f;" d="M974 639l-109 24c-27 89-110 154-208 154-97 0-180-64-208-153l-107-23-301 67c-10 2-20 0-28-6-8-7-13-16-13-26v-690c0-16 11-30 26-33l309-69c2-1 5-1 7-1 2 0 5 0 7 1 0 0 0 0 0 0l309 67 301-67c3-1 5-1 8-1 7 0 15 3 21 8 7 6 12 15 12 26v690c0 15-11 29-26 32z m-665-681l-242 55v621l242-54v-622z m348 792c84 0 151-68 151-151 0-112-104-230-151-277-47 47-151 164-151 277 0 83 68 151 151 151z m-282-792v622l64 14c3-151 145-295 186-333v-248l-250-55z m558 0l-241 55v248c42 40 180 184 183 332l58-13v-622z m-186 641c0 50-40 90-90 90-49 0-90-40-90-90s41-91 90-91c50 0 90 41 90 91z m-113 0c0 13 11 23 23 23 13 0 23-10 23-23 0-13-10-24-23-24-12 0-23 11-23 24z" horiz-adv-x="1000" />

<glyph glyph-name="add-subjects" unicode="&#xe810;" d="M0 772h180v-90h-180v90z m0-125h180v-611h-180v611z m33-498c0-31 25-57 56-57 31 0 56 26 56 57s-25 56-56 56c-31 0-56-25-56-56z m-33-221h180v72h-180v-72z m216 84v-12-72h233v85c-9 6-39 23-108 23-65 0-106-15-125-24z m0 517c19-9 60-23 125-23 69 0 98 16 108 23v64h-233v-64z m0-39v-439c26 10 67 20 125 20 53 0 87-8 108-18v435c-21-9-55-18-108-18-58 0-99 10-125 20z m614 286l-123-25 18-88 123 25-18 88z m148-721l-123-26-123 599 124 25 122-598z m-42 106c-7 31-31 51-55 46-23-4-37-33-31-63 6-31 30-51 54-47 24 5 38 34 32 64z m50-142l-124-25 15-70 123 25-14 70z m-483 663h180v90h-180v-90z m0-754h180v72h-180v-72z m0 197h180v432h-180v-432z m0-89h180v53h-180v-53z m0 557h180v54h-180v-54z" horiz-adv-x="1000" />

<glyph glyph-name="activity" unicode="&#xe811;" d="M1404 513c0 166-136 302-302 302-75 0-144-27-197-73-52 46-121 73-196 73s-143-27-196-73c-52 46-121 73-196 73-167 0-302-136-302-302 0-131 84-243 201-285-3-18-5-36-5-54 0-167 136-303 302-303 75 0 144 28 196 73 53-45 122-73 196-73 167 0 303 136 303 303 0 18-2 36-5 54 117 42 201 154 201 285l0 0z m-674-339c0-33-8-64-21-91-12 28-20 58-20 91 0 12 1 25 3 37 6 0 12 0 17 0s12 0 17 0c2-12 4-24 4-37l0 0z m-274 174c-33-28-74-47-120-51 25 36 61 65 103 80 6-10 11-20 17-29l0 0z m37 165c0 32 7 63 20 91 13-28 20-59 20-91 0-13-1-25-3-38-6 0-11 1-17 1s-11-1-17-1c-2 13-3 25-3 38l0 0z m94-136c24-9 46-22 66-38-7-9-12-19-17-30-25 9-46 22-66 38 6 10 12 20 17 30l0 0z m179-38c19 16 41 29 66 38 5-10 10-20 17-30-20-16-42-29-66-38-5 11-11 20-17 30l0 0z m213 38c42-15 79-43 104-80-46 4-88 22-121 51 6 9 12 19 17 29l0 0z m-74 99c-5 0-11 0-16-1-3 12-4 25-4 38 0 32 8 63 20 91 13-28 21-59 21-91 0-13-2-25-4-38-5 1-11 1-17 1l0 0z m-56 202c-31-48-49-104-49-165 0-19 1-37 5-55-36-12-68-31-96-55-27 24-60 43-95 55 4 18 5 36 5 55 0 61-18 117-49 165 38 32 87 51 140 51 53 0 101-19 139-51l0 0z m-748-165c0 119 97 216 216 216 53 0 102-19 139-51-31-47-49-104-49-165 0-19 2-37 5-54-73-26-134-80-169-149-83 30-142 109-142 203l0 0z m196-339c0 12 1 25 3 37 6 0 11 0 17 0 75 0 144 27 196 72 28-23 60-42 95-55-3-17-5-36-5-54 0-61 19-118 50-165-38-32-87-51-140-51-119-1-216 96-216 216l0 0z m825 0c0-119-97-217-216-217-53 0-102 20-140 52 31 47 50 104 50 165 0 18-2 36-5 54 35 13 67 31 95 55 53-45 121-72 196-72 6 0 11 0 17 0 1-12 3-24 3-37l0 0z m53 135c-35 69-95 123-169 149 4 18 5 36 5 54 0 61-18 118-49 166 38 31 87 51 140 51 119 0 216-97 216-217 0-93-60-172-143-203l0 0z" horiz-adv-x="1414" />

<glyph glyph-name="attendance" unicode="&#xe812;" d="M869 723c0 0-96 0-139 0-5 0-6-6-6-6l-6-44c0 0-2-6 5-6 31 0 91 0 91 0 15 0 27-12 27-27v-707c0-15-12-28-27-28h-627c-16 0-28 13-28 28v707c0 15 12 27 28 27 0 0 60 0 92 0 4 0 3 5 3 5l-6 45c0 0-1 6-5 6-43 0-140 0-140 0-15 0-27-13-27-28v-817c0-16 12-28 27-28h738c15 0 27 12 27 28v817c0 15-12 28-27 28z m-215 44h-57c-4 0-4 5-5 8-8 43-46 75-92 75-45 0-83-32-92-74 0-3 0-9-5-9h-56c-10 0-16-7-15-16l15-104c1-9 10-16 19-16h268c9 0 18 7 19 16l15 104c1 9-5 16-14 16z m-154-23c-16 0-28 12-28 28s12 28 28 28c16 0 28-12 28-28s-12-28-28-28z m63-269c0-6-5-11-11-11h-300c-6 0-11 5-11 11v23c0 6 5 11 11 11h300c6 0 11-5 11-11v-23h0z m145-35c-4-5-12-5-17 0l-43 43c-4 5-4 13 0 17l11 11c5 5 13 5 17 0l15-15c5-4 13-4 17 0l37 37c4 4 12 4 17 0l11-11c4-5 4-13 0-17l-65-65z m-145-120c0-6-5-10-11-10h-300c-6 0-11 4-11 10v23c0 6 5 11 11 11h300c6 0 11-5 11-11v-23h0z m145-34c-4-5-12-5-17 0l-43 43c-4 4-4 12 0 17l11 11c5 4 13 4 17 0l15-15c5-5 13-5 17 0l37 36c4 5 12 5 17 0l11-11c4-5 4-12 0-17l-65-64z m-236-120c0-6-5-11-11-11h-209c-6 0-11 5-11 11v22c0 6 5 11 11 11h209c6 0 11-5 11-11l0-22 0 0z m236-35c-4-5-12-5-17 0l-43 43c-4 5-4 12 0 17l11 11c5 5 13 5 17 0l15-15c5-5 13-5 17 0l37 36c4 5 12 5 17 0l11-11c4-4 4-12 0-17l-65-64z" horiz-adv-x="1000" />

<glyph glyph-name="student-leave-request" unicode="&#xe813;" d="M990 507l-65 36c-6 3-12 3-17 0-6-2-10-7-11-12l-25-102c-11 8-23 15-36 21v14c0 55-45 99-99 99h-29c-55 0-99-44-99-99v-13c-13-6-26-13-37-22l-17 69c15 11 27 29 33 51 10 41-5 79-34 90 2 11 4 22 4 34 0 97-97 175-216 175-119 0-216-78-216-175 0-14 2-27 6-40-22-16-31-49-23-84 8-29 27-52 50-60 27-89 96-180 190-180 48 0 91 25 124 61l11-45c-4-8-7-15-9-23-2 4-4 6-7 4-3-2-6-3-9-5-64-33-111-59-111-59l0 0v1l-1 0-1 0v-1l0 0c0 0-47 26-110 59-31 16-54 45-75 78-93-38-159-126-159-202 0-81 0-159 0-159h344 1 113l0-104c0-36 29-64 64-64 0 0 0 0 0 0l397 1c17 0 33 6 45 18 12 12 19 28 19 46l-1 300c0 39-8 75-24 109l40 162c2 9-2 17-10 21z m-282 18h29c33 0 60-27 61-60-24 8-50 11-76 11h0c-26 0-51-3-75-10 0 33 27 59 61 59z m-360-185c-77 0-139 83-162 166l-2 10-11 1c-12 2-28 16-34 40-4 17-1 34 5 44 4 5 8 9 13 10 1 0 2 1 3 1 1 0 2 0 3-1l15-1 2 15c4 31 14 58 27 81 26-28 76-47 134-47 65 0 121 24 141 59 17-26 30-57 35-93l2-15 15 1c2 1 4 1 6 0 1 0 2-1 3-1 13-6 20-30 14-53-2-10-6-18-11-24-1 5-5 9-10 10-5 3-11 3-16 0l-66-36c-7-4-11-12-9-21l18-77c-30-40-70-69-115-69z m585-400c0-11-8-19-19-19h-384c-11 0-19 8-19 19v137c0 10 8 19 19 19h384c11 0 19-9 19-19v-137z m-19 246c-10 0-19 9-19 19 0 96-77 174-173 174s-173-78-173-174c0-10-9-19-20-19-10 0-19 9-19 19 0 117 95 212 212 212s211-95 211-212c0-10-8-19-19-19z" horiz-adv-x="1000" />

<glyph glyph-name="alert" unicode="&#xe814;" d="M265 752l-68 68c-114-86-190-222-197-374h96c7 126 72 237 169 306z m640-306h95c-7 152-83 288-197 374l-68-68c97-69 162-180 170-306z m-95-24c0 146-101 269-238 301v33c0 40-32 72-72 72s-72-32-72-72v-33c-137-32-238-155-238-301v-263l-96-95v-48h812v48l-96 95c0 0 0 263 0 263z m-310-550c7 0 13 1 19 2 31 6 57 28 69 57 5 11 8 24 8 37h-191c0-53 43-96 95-96z" horiz-adv-x="1000" />

<glyph glyph-name="teacher-attendance" unicode="&#xe815;" d="M347 357c6 2 17 3 27 0 2-74 133-66 130 0-6 46-92 58-121 20-17 6-38 3-46 0-27 34-113 34-119-26 1-53 122-71 129 6z m92 28c68-1 66-63-1-65-81 8-47 66 1 65z m-157 0c68-1 66-63-1-65-81 8-47 66 1 65z m4-213c42-36 78-35 78-35s33 3 72 34c37-38 97-43 164-17-34 8-77 55-75 133 22 12 48 99 3 97 21 116-5 222-165 232-154-9-192-93-170-232-47 5-14-92 3-97 0-91-36-115-74-133 61-29 131-21 164 18z m-67 191l5 9c0 0-9 34-7 53 36 3 107 38 143 95 21-29 64-82 144-96-1-25-5-52-5-52s2-4 4-9c20 37 44-26 1-65-35-66-83-122-142-138-86 23-123 94-143 138-47 45-20 102 0 65z m474-339c-37 49-204 81-212 89 18-101-85-193-120-217-19 13-140 107-121 216-109-31-177-49-210-86-15-22-35-96-29-176h719c0 0 4 130-27 174z m289 755c0 0-53 0-77 0-3 0-3-3-3-3l-4-24c0 0-1-3 3-3 17 0 50 0 50 0 9 0 16-7 16-16v-393c0-8-7-15-16-15h-348c-9 0-16 7-16 15v393c0 9 7 16 16 16 0 0 33 0 51 0 2 0 2 2 2 2l-4 26c0 0 0 2-3 2-24 0-77 0-77 0-9 0-16-7-16-15v-454c0-9 7-16 16-16h410c9 0 15 7 15 16v454c0 8-6 15-15 15z m-120 25h-31c-2 0-3 3-3 4-5 24-26 42-51 42-25 0-46-17-51-41-1-2 0-5-3-5h-31c-6 0-9-4-8-9l8-58c1-5 5-9 10-9h150c5 0 9 4 10 9l8 58c1 5-3 9-8 9z m-85-13c-9 0-16 7-16 16s7 16 16 16c9 0 16-7 16-16s-7-16-16-16z m35-149c0-4-3-6-6-6h-167c-3 0-6 2-6 6v12c0 4 3 6 6 6h167c3 0 6-2 6-6l0-12 0 0z m81-20c-3-2-7-2-10 0l-24 24c-2 3-2 7 0 10l7 6c2 2 6 2 9 0l8-9c3-2 7-2 10 0l20 21c3 2 7 2 9 0l7-6c2-3 2-7 0-10l-36-36z m-81-66c0-4-3-6-6-6h-167c-3 0-6 2-6 6v12c0 4 3 6 6 6h167c3 0 6-2 6-6l0-12 0 0z m81-20c-3-2-7-2-10 0l-24 24c-2 3-2 7 0 10l7 6c2 2 6 2 9 0l8-9c3-2 7-2 10 0l20 21c3 2 7 2 9 0l7-6c2-3 2-7 0-10l-36-36z m-132-66c0-4-2-6-6-6h-116c-3 0-6 2-6 6v12c0 4 3 6 6 6h116c4 0 6-2 6-6v-12l0 0z m132-20c-3-2-7-2-10 0l-24 24c-2 3-2 7 0 10l7 6c2 2 6 2 9 0l8-9c3-2 7-2 10 0l20 21c3 2 7 2 9 0l7-6c2-3 2-7 0-10l-36-36z" horiz-adv-x="1000" />

<glyph glyph-name="teacher-leave-request" unicode="&#xe816;" d="M520 523c21 12 47 99 2 97 21 115-5 219-163 230-152-10-190-92-168-231-47 6-14-90 2-95 1-90-34-114-72-132 60-29 129-21 162 18 42-36 77-35 77-35s33 3 71 34c37-38 97-43 163-17-34 7-77 54-74 131z m-21 12c-35-66-82-121-141-138-85 24-121 93-142 137-46 45-19 101 1 65l5 9c0 0-10 33-7 52 36 3 106 37 142 94 20-29 63-81 142-95-1-25-5-52-5-52s2-4 4-8c20 36 43-26 1-64z m-498-444h659 53c0 0 3 129-28 172-36 49-201 80-209 88 18-100-85-190-119-214-18 12-139 105-119 213-108-30-175-49-208-85-16-21-35-95-29-174z m497 502c-5 46-91 57-119 19-17 7-38 4-45 0-27 35-113 34-118-25 1-53 120-70 128 6 6 2 16 2 26 0 2-74 132-65 128 0z m-220-37c-80 8-47 65 1 64 67-1 65-61-1-64z m155 0c-80 8-47 65 1 64h0c67-1 66-61-1-64z m303-313v-383c-23 2-42 21-42 45v293c0 23 19 43 42 45z m8-384h4v384h-4v-384z m179 384h10v-384h-7v-9h-21v9h-116v-9h-21v9h-7v384h10v61c0 6 5 11 12 11h129c6 0 11-5 11-11l0-61 0 0z m-37-101c10 0 18 8 18 18 0 10-8 18-18 18-10 0-18-8-18-18s8-18 18-18z m-27 17l-35-14 19-51 36 14-20 51z m-65 84h106v49h-106v-49z m-4-130l22-5 5 22-22 4-5-21z m11-46c0-15 8-27 18-27 10 0 19 12 19 27 0 14-9 26-19 26-10 0-18-12-18-26z m58-47h-51v-17h51v17z m46 51h-51v-17h51v17z m42-212h4v384h-4v-384z m12 384v-383c23 2 41 21 41 45v293c0 23-18 43-41 45z" horiz-adv-x="1000" />

<glyph glyph-name="student-group" unicode="&#xe817;" d="M117 460c22-86 94-164 186-164 93 0 166 78 189 163 9 1 16 8 17 17l2 34c1 8-4 16-12 19 0 2 0 4-1 6-1 77-15 139-76 165-64 27-120 28-162 11-3-1-10-10-12-12-3-1-18 3-23 2-91-13-121-99-115-166 0-1 0-3 0-5-9-2-15-10-14-20l3-33c0-10 8-17 18-17z m19 66c40 15 116 46 125 62 35-37 158-57 212-64 0-3 0-7 0-10 0-89-74-192-170-192-96 0-168 101-168 192 0 4 1 8 1 12z m313-200c-4 1-9 0-12-1l-77-104-58 46 0 0v0l-1 0-58-47-76 104c-3 1-8 2-13 2-145-21-154-348-154-348l302 0v0l301 0c0 0-9 328-154 348z m156 138c18-69 77-133 151-133 75 0 135 64 154 133 7 1 12 6 13 13l2 28c1 7-3 13-10 15 0 2 0 3 0 5-2 63-13 113-62 134-52 22-98 22-131 9-3-1-8-8-10-10-3-1-14 3-19 2-74-11-98-80-93-134 0-2 0-3 0-5-7-2-12-8-12-16l3-27c0-8 7-13 14-14z m16 54c32 12 94 37 101 50 28-29 128-46 172-51 0-3 1-6 1-9 0-72-61-156-139-156-78 0-136 83-136 156 0 4 1 7 1 10z m254-162c-4 0-8 0-10-1l-62-85-47 38-1 0v0l0 0-47-38-62 84c-3 1-7 2-10 1-39-5-65-37-84-77 11-17 27-44 40-80 13-35 21-83 27-125l136 0v1l245 0c0 0-7 265-125 282z" horiz-adv-x="1000" />

<glyph glyph-name="message" unicode="&#xe818;" d="M914 506h-223v180c0 47-39 86-86 86h-519c-47 0-86-39-86-86v-312c0-47 39-86 86-86h50l64-85c3-6 11-9 18-9s13 4 18 9l64 85h9v-180c0-47 39-86 86-86h305l64-85c4-6 11-9 18-9s13 4 18 9l64 85h51c46 0 85 39 85 86v312c0 48-38 86-86 86z m-626-173c-7 0-13-4-18-9l-53-70-53 70c-4 6-11 9-18 9h-63c-23 0-41 18-41 41v312c0 23 18 41 41 41h520c23 0 41-18 41-41v-203-109c0-23-18-41-41-41h-272l-43 0 0 0z m668-225c0-23-18-41-41-41h-63c-7 0-13-4-18-9l-53-70-53 70c-3 6-11 9-18 9h-315c-23 0-41 18-41 41v180h251c17 0 33 5 46 13h169c12 0 21 10 21 22 0 12-9 22-21 22h-133c4 8 5 18 5 28v87h223c23 0 41-18 41-41v-311h0z m-116 91c0-12-9-22-21-22h-328c-12 0-21 10-21 22s9 22 21 22h328c11 0 21-10 21-22z m-333 244h-326c-12 0-22 10-22 22s10 22 22 22h326c12 0 21-10 21-22 2-12-9-22-21-22z m-348 147c0 12 10 22 22 22h196c12 0 21-10 21-22 0-12-9-21-21-21h-196c-12 0-22 9-22 21z" horiz-adv-x="1000" />

<glyph glyph-name="log" unicode="&#xe819;" d="M709 850h-418c-49 0-90-40-90-90v-820c0-50 41-90 90-90h418c49 0 90 40 90 90v820c0 50-41 90-90 90z m-209-951c-23 0-42 19-42 43 0 23 19 42 42 42 23 0 42-19 42-42 0-24-19-43-42-43z m236 126h-472v719h472v-719z m-380 417c-35 2-63 31-63 67v40c0 37 31 67 68 67h222c37 0 67-30 67-67v-40c0-37-30-68-67-68h-125l-61-61c-5-4-11-6-17-6-3 0-6 0-9 1-9 4-15 13-15 22v45z m351-175v-45c0-36-28-65-63-67v-44c0-10-6-18-14-22-3-1-6-2-9-2-7 0-13 2-17 7l-62 61h-124c-37 0-68 30-68 67v45c0 37 31 67 68 67h222c37 0 67-30 67-67z" horiz-adv-x="1000" />

<glyph glyph-name="calender" unicode="&#xe81a;" d="M244 612h15c21 0 39 18 39 40v108 41c0 22-18 39-39 39h-15c-21 0-39-17-39-39v-41-108c0-22 18-40 39-40z m505 1h15c21 0 39 18 39 40v118 31c0 22-18 39-39 39h-15c-21 0-39-17-39-39v-31-118c0-22 18-40 39-40z m187 147h-101v-118c0-39-32-61-71-61h-15c-39 0-71 32-71 72v107h-348v-108c0-40-32-72-71-72h-15c-39 0-71 32-71 72v108h-109c-35 0-64-28-64-64v-773c0-35 29-64 64-64h872c35 0 64 29 64 64v773c0 36-29 64-64 64z m0-837h-872l0 584h872l0-584c0 0 0 0 0 0z m-403 388h115c5 0 8 4 8 8v100c0 4-3 8-8 8h-115c-4 0-8-4-8-8v-100c0-4 4-8 8-8z m188 0h115c4 0 8 4 8 8v100c0 4-4 8-8 8h-115c-5 0-9-4-9-8v-100c0-4 4-8 9-8z m-563-163h115c4 0 8 4 8 8v100c0 4-4 8-8 8h-115c-5 0-8-4-8-8v-100c0-4 3-8 8-8z m188 0h114c5 0 9 4 9 8v100c0 4-4 8-9 8h-114c-5 0-9-4-9-8v-100c0-4 4-8 9-8z m187 0h115c5 0 8 4 8 8v100c0 4-3 8-8 8h-115c-4 0-8-4-8-8v-100c0-4 4-8 8-8z m188 0h115c4 0 8 4 8 8v100c0 4-4 8-8 8h-115c-5 0-9-4-9-8v-100c0-4 4-8 9-8z m-448-47h-115c-5 0-8-3-8-8v-100c0-4 3-8 8-8h115c4 0 8 4 8 8v100c0 5-4 8-8 8z m187 0h-114c-5 0-9-3-9-8v-100c0-4 4-8 9-8h114c5 0 9 4 9 8v100c0 5-4 8-9 8z m188 0h-115c-4 0-8-3-8-8v-100c0-4 4-8 8-8h115c5 0 8 4 8 8v100c0 5-3 8-8 8z m188 0h-115c-5 0-9-3-9-8v-100c0-4 4-8 9-8h115c4 0 8 4 8 8v100c0 5-4 8-8 8z" horiz-adv-x="1000" />

<glyph glyph-name="timetable" unicode="&#xe81b;" d="M836 179h-48v62c0 21-17 37-37 37-20 0-36-16-36-37v-91c0-24 20-43 44-43h77c20 0 36 16 36 36 0 20-16 36-36 36z m-594 351h-78c-17 0-31-14-31-31v-65c0-17 14-31 31-31h78c17 0 31 14 31 31v65c0 17-14 31-31 31z m202 0h-78c-17 0-31-14-31-31v-65c0-17 14-31 31-31h78c17 0 31 14 31 31v65c0 17-14 31-31 31z m205 0h-78c-17 0-31-14-31-31v-65c0-17 14-31 31-31h78c17 0 31 14 31 31v65c0 17-14 31-31 31z m-407-200h-78c-17 0-31-13-31-30v-65c0-17 14-31 31-31h78c17 0 31 14 31 31v65c0 17-14 30-31 30z m202 0h-78c-17 0-31-13-31-30v-65c0-17 14-31 31-31h78c17 0 31 14 31 31v65c0 17-14 30-31 30z m365 61l1 346c0 15-5 29-16 38-10 9-23 13-38 13h-700c-14 0-28-4-37-12-12-10-19-24-19-39l1-626c0-32 25-58 55-58h482c38-83 122-141 220-141 133 0 242 109 242 242 0 116-82 214-191 237z m-294-237c0-5 0-10 1-15h-428c-4 1-10 7-12 10v436c3 1 7 1 11 1h633v-192c-116-18-205-119-205-240z m243-152c-84 0-153 68-153 152s69 152 153 152c84 0 152-68 152-152s-68-152-152-152z" horiz-adv-x="1000" />

<glyph glyph-name="parallel-teacher" unicode="&#xe81c;" d="M655 250l-57 26c0 42 0 251 0 273 0 129-60 206-209 206s-211-79-210-208v-271l-57-26a75 75 0 0 1-43-37s-127-322-58-322h734c68 0-58 322-58 322a75 75 0 0 1-42 37z m-152-9a186 186 0 0 1-114-144h0a186 186 0 0 1-115 144l62 62c-89 40-112 175-112 175a180 180 0 0 0-6 33c45 3 200 17 210 67 15-27 93-95 124-100 0 0-31-134-113-175z m769 27l-64 31c0 47 0 282 0 307 0 144-68 230-235 230s-236-89-235-233v-306l-64-31a85 85 0 0 1-48-40s-142-360-64-360h822c78 0-64 360-64 360a84 84 0 0 1-48 42z m-170-11a207 207 0 0 1-129-161s0 0 0 0a207 207 0 0 1-129 161l71 70c-100 45-126 197-126 197a201 201 0 0 0-6 37c50 3 224 18 235 74 17-31 104-106 139-112 0 0-34-150-127-195z" horiz-adv-x="1423" />

<glyph glyph-name="yammer" unicode="&#xe81d;" d="M114 733l178-444 168 432c0 0 24 49 69 26 30-16 21-48 21-48l-268-665c0 0-47-97-149-94 0 0-61-11-91 22-24 47 31 68 31 68s50-5 74-2 44 30 63 60c-2 2 25 66 25 66l-217 542c0 0-7 43 31 60s65-23 65-23z m480-547c0 0 106-90 176-138 56-50 90-14 90-14s22 27 10 52c-14 20-66 42-66 42l-119 57c0 0-27 11-71 22-22 4-19 4-32 0 2-8 6-15 12-21z m83 134c0 0 138-19 223-22 74-12 83 36 83 36s5 35-19 50c-23 9-78 0-78 0l-131-16c0 0-29-5-72-20-21-9-18-7-27-17 6-6 13-10 21-11z m-66 152c0 0 131 45 208 81 72 23 58 71 58 71s-12 32-39 35c-25-2-70-35-70-35l-110-74c0 0-23-17-55-50-14-18-13-14-16-28 8-2 16-2 24 0z" horiz-adv-x="1000" />

<glyph glyph-name="teacher-name" unicode="&#xe81e;" d="M757 265l-66 31c0 48 0 290 0 316 1 149-69 238-243 238s-243-92-242-241v-313l-66-31a88 88 0 0 1-50-43s-146-372-66-372h849c78 0-67 372-67 372a87 87 0 0 1-49 43z m-176-10a214 214 0 0 1-132-166s0 0 0 0a214 214 0 0 1-133 166l73 72c-103 46-130 203-130 203a207 207 0 0 0-7 38c51 3 230 19 243 77 17-32 107-110 143-115 0 0-35-155-131-202z" horiz-adv-x="897" />

<glyph glyph-name="gadebook" unicode="&#xe81f;" d="M134 850v-1000h723v1000h-723z m681-958h-639v916h639v-916z m-539 445h460v-43h-460v43z m0-100h460v-43h-460v43z m0-100h460v-44h-460v44z m0-93h460v-43h-460v43z m254 487l6-23h51l-58 159h-48l-58-159h49l7 23h51z m-25 83h0l15-49h-31l16 49z m130 7v-39h-39v-34h39v-40h34v40h39v34h-39v39h-34z m-76-237c110 0 199 71 199 181s-89 199-199 199c-33 0-85-17-93-24-8-7-5-22 10-16 14 7 53 21 83 21 100 0 181-81 181-180s-81-162-181-162-180 62-180 162c0 31 17 81 23 87 5 6-9 22-15 11-6-11-26-62-26-98-1-110 89-181 198-181z" horiz-adv-x="1000" />

<glyph glyph-name="module-management" unicode="&#xe820;" d="M684 659v22c0 25-18 44-43 44h-75c6 13 9 25 9 38 0 46-37 84-84 84s-85-38-85-84c0-13 3-29 10-38h-60c-25 0-43-19-43-44v-22h-100c-38 0-69-31-69-68v-672c0-38 31-69 69-69h571c38 0 69 31 69 69v675c0 37-31 69-69 69 4-4-100-4-100-4z m-240 107c0 28 22 50 50 50 28 0 50-22 50-50 0-16-6-28-19-38h-62c-13 10-19 22-19 38z m344-807c0-22-19-40-41-40h-491c-22 0-40 18-40 40v591c0 22 18 41 40 41h57c0-19 15-35 34-35h306c19 0 35 16 35 35h59c22 0 41-19 41-41v-591l0 0z m-447 541c31 0 59-28 59-59s-28-60-59-60-60 28-60 60 25 59 60 59z m337-25h-203c-19 0-34-16-34-34s15-35 34-35h203c19 0 35 16 35 35-4 18-16 34-35 34z m-337-144c31 0 59-28 59-59s-28-59-59-59-60 28-60 59 25 59 60 59z m337-25h-203c-19 0-34-15-34-34s15-34 34-34h203c19 0 35 15 35 34s-16 34-35 34z m-337-153c31 0 59-25 59-59s-25-60-59-60-60 25-60 60 25 59 60 59z m337-25h-203c-19 0-34-15-34-34s15-35 34-35h203c19 0 35 16 35 35-4 19-16 34-35 34z" horiz-adv-x="1000" />

<glyph glyph-name="add-existing-student" unicode="&#xe821;" d="M103 563c7-29 26-51 48-59 26-85 93-173 182-173 90 0 157 88 183 173 22 8 40 30 48 59 10 39-5 75-33 86 2 11 4 22 4 33 0 93-93 168-208 168-115 0-208-75-208-168 0-14 2-27 6-39-21-16-30-47-22-80z m34 50c3 4 7 8 12 9 1 0 2 1 3 1 1 0 2 0 3-1l14-1 2 14c5 30 14 56 27 79 24-27 72-46 128-46 63 0 116 24 136 57 16-25 28-55 33-90l2-14 15 1c2 1 4 1 5 0 1 0 2-1 3-1 13-6 19-28 14-51-6-23-21-37-33-38l-10-2-2-9c-22-79-82-160-156-160-74 0-134 80-156 160l-2 9-10 2c-12 1-27 15-33 38-3 16-1 33 5 43z m590-218c-52 0-102-15-143-41-22 19-46 34-74 45-19-33-41-61-71-76-61-31-106-56-106-56l0 0v1l-1 0-1 0v-1l0 0c0 0-45 25-106 56-30 16-52 43-72 76-90-36-153-121-153-194 0-78 0-153 0-153h331 1 132c31-116 137-202 263-202 151 0 273 122 273 273s-122 272-273 272z m208-312h-159v-159c0-3-2-5-4-5h-73c-2 0-4 2-4 5v159h-159c-3 0-4 2-4 4v72c0 3 1 5 4 5h159v159c0 2 2 4 4 4h73c2 0 4-2 4-4v-159h159c2 0 4-2 4-5v-72c0-2-2-4-4-4z" horiz-adv-x="1000" />

<glyph glyph-name="teacher-id-card" unicode="&#xe822;" d="M399 180h-286c0 59 39 108 92 128-11 12-20 30-24 57-5-2-14 5-17 14-2 10-4 26 2 28 1 0 3 0 5-1v27c0 43-10 69 60 76l-1 0c0 0 56 5 70 18 0 0 1-11 7-23 32-12 36-41 35-71v-27c2 1 4 1 5 1 6-2 3-18 1-28-3-10-10-16-16-14-4-26-13-45-25-57 54-19 92-69 92-128z m601 496v-652h-1000v652h1000z m-54-54h-892v-544h892v544z m-71-107h-397v-53h397v53z m0-138h-397v-54h397v54z m0-139h-397v-53h397v53z" horiz-adv-x="1000" />

<glyph glyph-name="student-id-card" unicode="&#xe823;" d="M903 613h-198v86c0 17-14 30-30 30h-32c-14 66-73 116-143 116s-129-50-143-116h-31c-17 0-30-13-30-30v-86h-198c-54 0-98-44-98-98v-563c0-54 44-97 98-97h805c53 0 97 43 97 97v563c0 54-44 98-97 98z m-547 56h28c16 0 30 14 30 30 0 48 38 86 86 86s86-38 86-86c0-16 14-30 30-30h29v-173h-289v173z m584-717c0-21-17-37-37-37h-805c-21 0-38 16-38 37v563c0 21 17 38 38 38h198v-87c0-16 13-30 30-30h349c16 0 30 14 30 30v87h198c20 0 37-17 37-38v-563z m-440 784c-32 0-58-26-58-58s26-58 58-58 58 26 58 58-26 58-58 58z m0-67c-5 0-9 4-9 9s4 9 9 9 9-4 9-9-4-9-9-9z m-204-499c41 0 74 33 74 74 0 41-33 74-74 74s-74-33-74-74c0-41 34-74 74-74z m0 99c14 0 25-11 25-25 0-13-11-24-25-24s-24 11-24 24c0 14 11 25 24 25z m166 129h-331c-14 0-25-12-25-25v-373c0-14 11-25 25-25h331c14 0 25 11 25 25v373c0 13-11 25-25 25z m-92-373h-148v61c0 11 7 20 17 23l8 3 40-17c6-3 13-3 19 0l40 17 8-3c10-3 16-12 16-23v-61z m67 0h-17v61c0 32-20 60-50 70-1 0-1 0-1 0l-17 6c-6 1-12 1-17-1l-39-17-38 17c-5 2-11 2-17 1l-17-6c0 0-1 0-1 0-30-10-50-38-50-70v-61h-18v323h282v-323z m412 64h-291c-16 0-30-13-30-30s14-30 30-30h291c17 0 30 14 30 30s-13 30-30 30z m0 117h-291c-16 0-30-14-30-30 0-17 14-30 30-30h291c17 0 30 13 30 30 0 16-13 30-30 30z m-291 56h117c16 0 30 13 30 30 0 16-14 30-30 30h-117c-16 0-30-14-30-30 0-17 14-30 30-30z" horiz-adv-x="1000" />

<glyph glyph-name="student-message" unicode="&#xe824;" d="M1000 240c0 89-63 168-156 210 6-20 9-40 9-61 10-5 19-11 27-18 47-36 73-82 73-131 0-48-26-95-73-131-51-40-121-62-195-62-50 0-98 10-140 29-26-5-52-9-80-10 57-43 134-69 220-69 55 0 107 11 152 30l114-59-23 118c45 42 72 95 72 154z m-179 182c-1 21-4 41-9 60-40 143-205 250-401 250-227 0-411-142-411-317 0-76 35-147 94-201l-30-153 149 76c59-24 126-39 198-39 7 0 14 1 21 1 28 1 55 4 81 9 177 35 308 159 308 307 0 2 0 5 0 7z m-604-59c-33 0-60 27-60 60 0 33 27 59 60 59 33 0 60-26 60-59 0-33-27-60-60-60z m194 0c-33 0-60 27-60 60 0 33 27 59 60 59 32 0 59-26 59-59 0-33-27-60-59-60z m193 0c-33 0-60 27-60 60 0 33 27 59 60 59s60-26 60-59c0-33-27-60-60-60z" horiz-adv-x="1000" />

<glyph glyph-name="search" unicode="&#xe825;" d="M881 158c159 158 159 415 0 573-158 159-415 159-573 0-135-134-155-333-61-489 0 0 6-12-3-21-52-51-207-207-207-207-41-41-51-99-14-135l6-6c37-37 94-27 135 14 0 0 155 155 207 207 9 9 21 3 21 3 156-94 355-74 489 61z m-499 74c-116 117-116 308 0 424 117 117 308 117 424 0 117-116 117-307 0-424-116-116-307-116-424 0z m26 237c-5 0-11 1-16 3-21 9-31 33-22 55 56 134 211 196 345 140 22-9 32-34 23-55-9-21-34-31-55-22-92 38-197-5-236-96-7-16-22-25-39-25z" horiz-adv-x="1000" />

<glyph glyph-name="bee" unicode="&#xe826;" d="M515 445c0 0-531 149-380 289s380-289 380-289z m79-4c0 0-375 350-190 402s190-402 190-402z m48-61c-416 190-649-371-382-467 5-2 17-5 21-25 6-12 4-25 11-33 1 4 2 8 6 11-2 13-4 33 5 36 88-16 266 194 302 250 18-1 36-38 37-47-4-3-9-13-9-13l9-2c0 0 2-2-8-16 1-5 9-10 9-10l2-14 8 9 12 2-7 9 14 11-13 13 6 14c0 0 1 64-47 68 6 22 18 14 22 14 18-4 53-5 54-25 0 5 8-38 7-44-4-4-9-13-9-13l7-11-3-13 8-20 19 9-8 11 16 8-12 22-5 54c0 0-8 31-37 38 12 15 35 3 42 0 6-3 17-12 19-23-1-7-6-19-6-19l4-6-4-10 9-9 13 8 8 8-7 16 2 17c0 0-13 51-82 44-3-3-7-11-16-17-10-2-4-3-14 3-8 6 22 38 22 38 143-74 188 61 181 84-1 23-19 59-47 76-1 33 21 83 49 95 32-18 36 8 36 8s3 25-38 10c-47-17-67-73-73-103-21 14-36 13-60 11-3-7-30 86 25 120 24-1 28 24 28 24s-10 22-39-5c-32-19-56-98-37-141-13-8-35-18-50-55z" horiz-adv-x="1000" />

<glyph glyph-name="parent-circle" unicode="&#xe827;" d="M385 506c-64 0-115-57-115-127s51-128 115-128 115 57 115 128-52 127-115 127z m115 337c-272 0-493-220-493-493s221-493 493-493 493 221 493 493-220 493-493 493z m-222-625v-164h-82v518h82v-33c395 219 375-553 0-321z m266 13c20 35 37 77 38 119-6-43 123-175 189-25h99c-24-187-260-205-326-94z m236 201c-19 58-139 122-202-18-3 41-19 75-37 101 161 178 331-1 329-83h-90z" horiz-adv-x="1000" />

<glyph glyph-name="students-internal-notes" unicode="&#xe828;" d="M868 474l-54 54c-14 14-40 14-54 0l-298-298c-4-4-8-10-10-14l-28-82c-2-4-2-8-2-12h-38-188v-38h200 66v0c4 0 8 0 12 2l82 28c6 2 10 6 14 10l298 298c16 14 16 38 0 52z m-406-352l28 82 54-54-82-28z m108 54l-54 54 270 270 54-54-270-270z m-246 478c-62 0-114-52-114-114s52-114 114-114 114 52 114 114-50 114-114 114z m0-190c-42 0-76 34-76 76s34 76 76 76 76-34 76-76-34-76-76-76z m114-70c-4 18-20 32-38 32h-76-76c-18 0-34-14-38-32l-16-82h38l14 76h56v-76h38v76h60l14-76h38l-14 82z m-242-158v-38h212l10 30c0 2 2 6 4 8h-226z m538 320c10 10 20 16 32 18v156h-646v-760h646v294l-38-38v-218h-570v684h570v-142l6 6z" horiz-adv-x="1000" />

<glyph glyph-name="teacher-student-profile" unicode="&#xe829;" d="M891-68l-27 156a119 119 0 0 1-87 90l-144 30-29 61a16 16 0 0 1-7 6 432 432 0 0 1 62 113 94 94 0 0 1 58 61c10 40 0 75-25 90v28c23 67 34 177-67 236a135 135 0 0 1-111 19c-5 11 9 28 9 28a46 46 0 0 1-41-19 195 195 0 0 1-124 10c-167-35-189-254-158-303-24-15-34-50-24-89a94 94 0 0 1 59-62 426 426 0 0 1 61-112 16 16 0 0 1-7-7l-29-60-144-30a119 119 0 0 1-87-90l-28-156a69 69 0 0 1 69-82h752a69 69 0 0 1 69 82z m-39-37a37 37 0 0 0-30-13h-146v85a17 17 0 1 1-32 0v-85h-395v85a17 17 0 1 1-33 0v-85h-145a36 36 0 0 0-37 45l27 156a87 87 0 0 0 62 63l133 28a15 15 0 0 1 2-2l144-83a16 16 0 0 1 9-3 18 18 0 0 1 4 0 17 17 0 0 1 10 10l21 43 21-43a17 17 0 0 1 10-8 17 17 0 0 1 5 0 16 16 0 0 1 8 2l145 83 2 2 133-28a87 87 0 0 0 62-63l27-157a38 38 0 0 0-7-32z m-552 322l10 21 25-14 21-12 21-13 48-27-21-46-100 58-16 9 3 5z m293 0l9-19 3-5-16-9-100-58-22 46 49 28 21 12 21 12 25 14z m-332 202a56 56 0 0 0-51 39c-6 25 0 49 13 53a17 17 0 0 0 13-3v39h0a14 14 0 0 0 0 1v13c3 32 34 93 201 38a85 85 0 0 1 111 51c56-6 94-71 109-110v-32a19 19 0 0 0 6 3s0 0 0 0 2 0 3 0a14 14 0 0 0 4 0c13-4 19-28 13-53a57 57 0 0 0-51-39c-21-66-68-153-136-183a122 122 0 0 0-50-11 124 124 0 0 0-50 11c-68 29-114 116-135 183z" horiz-adv-x="892" />

<glyph glyph-name="combined-classroom" unicode="&#xe82a;" d="M901 805h-467c-11 0-23-9-23-22v-164l25 15c7 5 11 7 18 7v121h425v-303h-423v47l-42-27v-42c0-12 9-23 22-23h467c12 0 23 9 23 23v346c-5 13-14 22-25 22z m-305-117c-5 7-16 7-23 2l-74-56c7-4 13-11 18-18 2-2 2-4 4-6l72 56c7 4 7 13 3 22 0 0 0 0 0 0z m-104-90c-9 14-27 18-40 9l-59-36c0 50 0 23 0 54 0 39-31 70-69 70h-30c-24-63-15-40-38-94l9 38c0 2 0 7-2 9l-11 22 11 20c0 3 0 5-2 7 0 0 0 0-3 0h-29c-2-2-4-4-4-7 0 0 0-2 0-2l11-18-11-22c-2-2-2-5-2-9l6-38-33 94h-32c-38 0-70-31-70-70v-215c0-16 14-30 30-30 0 0 0 0 0 0l0 0c15 0 29 14 29 30v215l0 0c0 3 4 5 7 5 2 0 4-2 4-5v-303c27 2 52-7 72-25v119h16v-137c22-31 22-72 2-105 9 0 18-3 27-5 11 11 25 18 40 23 0 530 0 202 0 436 0 4 3 6 7 6 5 0 7-2 7-6v-108c0-16 13-30 29-30 5 0 9 3 14 5l103 65c13 9 18 25 11 38z m492-532c0 40-33 72-74 72h-162c16-30 14-68-4-97 36-2 67-20 85-49h77v72c0 4 4 6 6 4 3 0 5-2 5-4l0 0v-72h63l4 74z m-420 27c0 15 5 31 11 45h-141c15-32 13-68-5-95 29 0 56-11 77-33 20 20 47 29 74 31-9 16-16 34-16 52z m-47 195c-36 0-65-29-65-65 0-36 29-65 65-65 36 0 65 29 65 65-2 36-31 65-65 65l0 0z m-270-193c0 16 5 29 11 43h-170c-41 0-74-34-74-74v-72h60v72c0 4 5 6 7 4 2 0 4-2 4-4v-72h88c18 29 50 49 85 49-6 18-11 36-11 54z m-76 193c-36 0-65-29-65-65 0-36 29-65 65-65s65 29 65 65l0 0c-2 36-29 65-65 65z m645-353c0 41-34 72-74 72h-162c-41 0-74-31-77-72v3c0 40-33 72-74 72h-164c-40 0-74-32-74-72v-75h63v75c0 2 4 4 7 4 2 0 4-2 4-4v-75h164v75c0 2 3 6 7 6s7-2 7-6v-75h123v72l0 0c0 3 5 5 7 5 2 0 5-2 5-5v-72h164v72c0 3 2 7 6 7 3 0 7-2 7-7v-72h63v72z m-468 225c-36 0-65-29-65-65s29-65 65-65c36 0 66 29 66 65-3 36-32 65-66 65l0 0z m315-2c-36 0-65-29-65-65s29-65 65-65c36 0 65 29 65 65 0 36-29 65-65 65l0 0z m-420 681c-34 0-63-27-63-63 0-36 29-65 65-65 36 0 65 29 65 65s-31 63-67 63l0 0z m586-551c-36 0-65-29-65-65 0-36 29-65 65-65 36 0 65 29 65 65-2 36-31 65-65 65l0 0z" horiz-adv-x="998" />

<glyph glyph-name="classroom" unicode="&#xe82b;" d="M124 174a63 63 0 1 0-63-62 63 63 0 0 0 63 62z m-119-320h238v87s-6 74-85 84c0 0-69 0-69 0s-80-9-84-89c1 0 0-82 0-82z m391 320a63 63 0 1 0-63-62 63 63 0 0 0 63 62z m-119-320h238v87s-6 74-85 84c0 0-69 0-69 0s-80-9-84-89c1 0 0-82 0-82z m392 320a63 63 0 1 0-63-62 63 63 0 0 0 63 62z m-119-320h238v87s-6 74-85 84c0 0-69 0-69 0s-80-9-84-89c1 0 0-82 0-82z m349 858a76 76 0 1 0-76-75 76 76 0 0 0 76 75z m-203-44l75-77 1 201s1 44-49 53h-587s-51-6-51-51v-430h-22v-90h728l-1 91h-19v43l-73 73v-90h-537v368h537m125-261l-146 155s-27 29-59 7c-22-25-1-53-1-53l189-206v-448s6-39 36-42 40 50 40 50l-1 213 38 2 1-214s2-47 36-50 41 52 41 52l-1 484s-7 68-67 73-69 5-106-23z m-579 131h-21l28 92h25l29-92h-22l-19 77z m10 38h20l4-16h-29z m139-73v16h18s21-1 25-16-5-25-13-27c13-2 19-11 19-21 0-11-8-28-30-28s-19 1-19 1v16s16-1 18-1c6 2 21 14 1 24h-19v14s13-1 15 0c5 2 16 16 1 22h-16z m1 16v-91h-20v91h20z m173-114l11 12s-12 20-46 8c-30-20-24-50-24-50s3-31 29-38c-1 0 30-8 42 12-3 3-10 11-10 11s-14-11-26-5c-9 8-12 6-14 25s12 29 12 29 16 6 26-4z" horiz-adv-x="1000" />

<glyph glyph-name="medical-log" unicode="&#xe82c;" d="M384 782c-23 0-41-18-41-41v-56h71v3c0 14 12 26 26 26h466c14 0 26-12 26-26v-337c0-9-7-16-16-16v-71h43c23 0 41 18 41 41v436c0 23-18 41-41 41h-575z m-177-233h68c0 14 12 26 26 26h456c20 0 36-17 36-37v-326c0-9-7-16-16-16h-7v-68h50c23 0 41 18 41 41v440c0 20-17 37-37 37h-576c-23 0-41-18-41-41v-56z m518-230c0 47-38 84-84 84h-249v0l-25 55c-14 30-44 49-77 49h-206c-46 0-84-38-84-84v-20-139-296c0-26 21-47 47-47l639-3c23 0 44 14 54 34l47 102c3 8 3 17-2 24-5 7-12 11-21 11h-39v230z m-243-191h-68v-71h-71v71h-68v68h68v67c0 1 1 1 1 1h69 1v-68h68v-68z" horiz-adv-x="1000" />

<glyph glyph-name="360" unicode="&#xe82d;" d="M1322-60s848 13 939 257c0 0 79 153-317 255l8 45-316-8 277-154 11 53s481-119 168-252c0 0-204-117-773-132z m-793 504s-852-156-140-345c0 0 111-44 510-70l3 48 303-93-311-72 2 50s-738 32-846 241c0 0-142 200 471 308z m232 101l90 105v61h-279v-75h170l-82-95v-63h42q75 0 75-50a44 44 0 0 0-20-38q-20-14-55-14a200 200 0 0 0-61 10 173 173 0 0 0-53 27l-36-72a212 212 0 0 1 69-33 308 308 0 0 1 83-11q54 0 92 18t55 48a124 124 0 0 1 19 65q0 46-28 78t-81 39h0z m344 14q-64 0-99-36 2 58 32 88t80 30q45 0 75-20l34 69a163 163 0 0 1-50 21 254 254 0 0 1-61 7q-60 0-106-25a177 177 0 0 1-72-75q-26-50-26-119 0-97 48-150t131-52a175 175 0 0 1 77 16 131 131 0 0 1 54 48q20 31 20 71a120 120 0 0 1-68 112 153 153 0 0 1-69 15h0z m-19-192q-33 0-51 17a60 60 0 0 0 0 88q19 17 50 17 31 0 49-17t19-44q0-28-19-44t-48-17h0z m361-70a160 160 0 0 1 88 25q39 25 61 72t22 114q0 65-22 113t-61 72a169 169 0 0 1-176 0q-39-25-61-72t-22-113q0-66 22-114t61-72a160 160 0 0 1 88-25h0z m0 80q-36 0-57 32t-21 99q0 67 21 99t57 32q36 0 57-32t21-99q0-67-21-99t-57-32h0z m255 288a92 92 0 0 1 43 11 74 74 0 0 1 30 28 78 78 0 0 1 11 40 77 77 0 0 1-11 41 74 74 0 0 1-30 27 99 99 0 0 1-87 0 74 74 0 0 1-29-27 76 76 0 0 1-11-41 77 77 0 0 1 11-40 75 75 0 0 1 30-28 91 91 0 0 1 43-11h0z m0 43a29 29 0 0 0-23 9q-9 10-9 27 0 17 9 26a31 31 0 0 0 45 0q9-9 9-26 0-17-9-27a29 29 0 0 0-22-9h0z" horiz-adv-x="2305" />

<glyph glyph-name="spin1" unicode="&#xe830;" d="M496 850c-176 0-331-90-421-226-18-27-33-55-46-85-12-29-21-60-28-92 0 0 0-1 0-1l0 0 0 0c0-1 0-2 0-2 0-7 5-12 11-12l101 0c5 0 10 4 11 9 29 113 109 206 214 253 20 10 41 17 63 23 31 7 62 11 95 11l0 0 0 0 0 0c25 0 50-2 74-7 5-1 10-2 14-3 6-1 10-3 14-4l0 0c5-1 11 1 13 6l51 87c0 0 1 1 1 2 2 6-1 13-7 15-22 7-43 13-65 17-5 1-9 1-13 2-27 5-54 7-82 7l0 0 0 0z m327-114c-5 0-9-2-11-6l-50-87c-3-4-2-10 2-14 29-29 54-63 73-101 4-7 7-14 11-22 19-46 30-97 30-151l0 0 0 0c0-77-22-149-62-209-7-11-15-23-24-33-9-11-18-21-28-31l0 0 0 0 0 0c-4-4-5-10-2-14l50-87c0-1 1-2 2-3 4-5 11-5 16-1 58 52 104 117 134 190 6 15 11 29 15 44 14 46 21 94 21 144 0 108-34 209-92 291-11 16-23 31-37 46-13 14-26 28-41 41l0 0c-1 1-1 1-2 1-2 1-4 2-5 2z m-811-468l0 0c-1 0-2 0-3 0-6-1-10-8-9-14 34-166 149-302 302-366 30-12 61-21 93-28 32-6 66-10 100-10l0 0 0 0c40 0 79 5 117 14 7 1 14 3 22 5 6 2 13 5 20 7 1 0 2 1 3 1 6 3 8 10 4 16l-50 87c-3 5-8 7-13 6-14-4-28-7-42-9-3-1-6-1-8-2-18-2-35-3-53-3l0 0 0 0c-128 0-242 63-311 160-1 0-1 0-1 0-13 19-25 40-35 61-10 21-18 43-24 65-1 6-6 10-11 10l-101 0z" horiz-adv-x="1000" />

<glyph glyph-name="spin2" unicode="&#xe831;" d="M46 144l0 0c0 0-1 0-1 0-8 18-15 37-21 55-6 19-11 38-15 58-19 99-8 203 35 298 3 6 10 8 15 5 1 0 2 0 2-1l0 0 80-59c5-3 6-9 4-14-5-12-9-25-12-37-4-13-7-26-9-40-11-67-3-137 23-201 2-5 0-10-4-13l0 0-80-56c-5-4-12-2-16 3-1 0-1 1-1 2l0 0z m120 574l0 0c0 1 0 1 0 1 15 13 30 25 46 37 16 11 33 22 51 31 89 50 192 72 297 60 6-1 10-6 10-13 0-1-1-1-1-2l0 0-31-94c-2-5-8-8-13-7-13 0-27 0-40 0-14-1-27-2-40-4-68-11-133-40-186-84-4-3-10-3-14 0l0 0-79 58c-5 3-6 11-2 16 0 0 1 1 2 1l0 0z m588 65l0 0c0 0 1 0 1 0 17-10 34-21 50-32 16-12 31-25 46-38 74-69 127-160 148-262 2-6-2-12-9-13-1 0-1 0-2 0l0 0-100 1c-5 0-10 4-11 9-3 13-8 26-12 38-5 12-10 25-17 36-31 61-78 113-137 150-5 3-6 8-5 13l0 0 31 92c2 6 9 9 15 7 1 0 2-1 2-1l0 0z m244-535l0 0c0 0 0 0 0 0-4-20-9-39-15-57-7-19-14-37-22-55-44-92-114-170-205-221-6-3-13-1-16 4 0 1-1 2-1 2l0 0-30 94c-2 6 1 12 6 14 11 7 22 15 32 23 11 9 21 18 30 27 49 48 84 109 101 176 2 5 6 8 11 8l0 0 98-1c6 0 11-5 11-11 0-1 0-2 0-3l0 0z m-438-395l0 0c0 0 0 0 0 0-20-2-40-3-60-3-20 0-40 1-59 4-102 12-198 54-276 125-5 4-5 11 0 16 0 0 1 1 1 1l0 0 81 58c5 3 12 2 16-2 10-8 20-16 32-23 11-7 22-14 34-20 62-31 131-45 200-41 6 0 10-3 12-8l0 0 29-92c2-6-1-12-7-14-1-1-2-1-3-1l0 0z" horiz-adv-x="1000" />

<glyph glyph-name="spin3" unicode="&#xe832;" d="M494 850c-266 0-483-210-494-472-1-19 13-20 13-20l84 0c16 0 19 10 19 18 10 199 176 358 378 358 107 0 205-45 273-118l-58-57c-11-12-11-27 5-31l247-50c21-5 46 11 37 44l-58 227c-2 9-16 22-29 13l-65-60c-89 91-214 148-352 148z m409-508c-16 0-19-10-19-18-10-199-176-358-377-358-108 0-205 45-274 118l59 57c10 12 10 27-5 31l-248 50c-21 5-46-11-37-44l58-227c2-9 16-22 30-13l64 60c89-91 214-148 353-148 265 0 482 210 493 473 1 18-13 19-13 19l-84 0z" horiz-adv-x="1000" />

<glyph glyph-name="spin4" unicode="&#xe834;" d="M498 850c-114 0-228-39-320-116l0 0c173 140 428 130 588-31 134-134 164-332 89-495-10-29-5-50 12-68 21-20 61-23 84 0 3 3 12 15 15 24 71 180 33 393-112 539-99 98-228 147-356 147z m-409-274c-14 0-29-5-39-16-3-3-13-15-15-24-71-180-34-393 112-539 185-185 479-195 676-31l0 0c-173-140-428-130-589 31-134 134-163 333-89 495 11 29 6 50-12 68-11 11-27 17-44 16z" horiz-adv-x="1001" />

<glyph glyph-name="spin5" unicode="&#xe838;" d="M462 850c-6 0-11-5-11-11l0-183 0 0c0-6 5-11 11-11l69 0c1 0 1 0 1 0 7 0 12 5 12 11l0 183 0 0c0 6-5 11-12 11l-69 0c0 0 0 0-1 0z m250-47c-4 1-8-2-10-5l-91-158 0 0c-4-6-2-13 4-16l60-34c0-1 0-1 0-1 6-3 13-1 16 4l91 158c3 6 2 13-4 16l-61 35c-1 1-3 1-5 1z m-428-2c-2 0-4-1-6-2l-61-35c-5-3-7-10-4-16l91-157c0 0 0 0 0 0 3-6 10-8 16-5l61 35c5 4 7 11 4 16l-91 157c0 1 0 1 0 1-2 4-6 6-10 6z m620-163c-2 0-4 0-6-1l-157-91c0 0 0 0 0 0-6-3-8-10-5-16l35-61c4-5 11-7 16-4l157 91c1 0 1 0 1 0 6 3 7 11 4 16l-35 61c-2 4-6 6-10 5z m-810-4c-5 0-9-2-11-6l-35-61c-3-5-1-12 4-15l158-91 0 0c6-4 13-2 16 4l35 60c0 0 0 0 0 0 3 6 1 13-4 16l-158 91c-2 1-4 2-5 2z m712-235l0 0c-6 0-11-5-11-11l0-69c0-1 0-1 0-1 0-7 5-12 11-12l183 0 0 0c6 0 11 5 11 12l0 69c0 0 0 0 0 1 0 6-5 11-11 11l-183 0z m-794-5l0 0c-7 0-12-5-12-12l0-69c0 0 0 0 0-1 0-6 5-11 12-11l182 0 0 0c6 0 11 5 11 11l0 69c0 1 0 1 0 1 0 7-5 12-11 12l-182 0z m772-153c-4 0-8-2-10-6l-34-60c-1 0-1 0-1 0-3-6-1-13 4-16l158-91c6-3 13-1 16 4l35 61c3 5 1 12-4 15l-158 92 0 0c-2 1-4 1-6 1z m-566-5c-1 0-3 0-5-1l-157-91c0 0-1 0-1 0-5-3-7-10-4-16l35-61c3-5 10-7 16-4l157 91c0 0 0 0 0 0 6 3 8 10 5 16l-35 61c-3 3-7 6-11 5z m468-121c-2 0-4 0-6-1l-61-35c-5-4-7-11-4-16l91-157c0-1 0-1 0-1 3-6 11-7 16-4l61 35c5 3 7 10 4 16l-91 157c0 0 0 0 0 0-2 4-6 6-10 6z m-367-2c-4 0-8-2-10-6l-91-158c-3-6-1-13 4-16l61-35c5-3 12-1 15 4l92 158 0 0c3 6 1 13-5 16l-60 35c0 0 0 0 0 0-2 1-4 1-6 2z m149-58c-7 0-12-5-12-11l0-183 0 0c0-6 5-11 12-11l69 0c0 0 0 0 1 0 6 0 11 5 11 11l0 183 0 0c0 6-5 11-11 11l-69 0c-1 0-1 0-1 0z" horiz-adv-x="1000" />

<glyph glyph-name="spin6" unicode="&#xe839;" d="M855 9c-189-190-520-172-705 13-190 190-200 494-28 695 11 13 21 26 35 34 36 23 85 18 117-13 30-31 35-76 16-112-5-9-9-15-16-22-140-151-145-379-8-516 153-153 407-121 542 34 106 122 142 297 77 451-83 198-305 291-510 222l0 1c236 82 492-24 588-252 71-167 37-355-72-493-11-15-23-29-36-42z" horiz-adv-x="1000" />
</font>
</defs>
</svg>
